Breaking Bad S01-S05 Seasons 1-5 Complete 1080p H264 BluRay-MIXE

Size 177.89 GB   10 seeders     Added 4 months ago

Breaking Bad S01-S05 Seasons 1-5 Complete 1080p H264 BluRay-MIXED

Breaking.Bad.Season.1.S01.1080p.H264.BluRay
Breaking.Bad.Season.2.S02.1080p.H264.BluRay
Breaking.Bad.Season.3.S03.1080p.H264.BluRay
Breaking.Bad.Season.4.S04.1080p.H264.BluRay
Breaking.Bad.Season.5.S05.1080p.H264.BluRay

Video
ID                                       : 1
Format                                   : AVC
Format/Info                              : Advanced Video Codec
Format profile                           : [email protected]
Format settings, CABAC                   : Yes
Format settings, ReFrames                : 3 frames
Codec ID                                 : V_MPEG4/ISO/AVC
Duration                                 : 55mn 14s
Bit rate mode                            : Variable
Bit rate                                 : 7 000 Kbps
Maximum bit rate                         : 40.0 Mbps
Width                                    : 1 920 pixels
Height                                   : 1 080 pixels
Display aspect ratio                     : 16:9
Frame rate mode                          : Variable / Constant
Frame rate                               : 23.976 fps
Color space                              : YUV
Chroma subsampling                       : 4:2:0
Bit depth                                : 8 bits
Scan type                                : Progressive
Bits/(Pixel*Frame)                       : 0.141
Stream size                              : 2.65 GiB (80%)
Writing library                          : x264 core 138 r2358 9e941d1

Language                                 : English
Default                                  : Yes
Forced                                   : No
Color primaries                          : BT.709-5, BT.1361, IEC 61966-2-4, SMPTE RP177
Transfer characteristics                 : BT.709-5, BT.1361
Matrix coefficients                      : BT.709-5, BT.1361, IEC 61966-2-4 709, SMPTE RP177

Audio
ID                                       : 2
Format                                   : DTS
Format/Info                              : Digital Theater Systems
Codec ID                                 : A_DTS
Duration                                 : 55mn 14s
Bit rate mode                            : Constant
Bit rate                                 : 1 510 Kbps
Channel(s)                               : 6 channels
Channel positions                        : Front: L C R, Side: L R, LFE
Sampling rate                            : 48.0 KHz
Bit depth                                : 24 bits
Compression mode                         : Lossy
Stream size                              : 597 MiB (18%)
Title                                    : 3/2+1
Language                                 : English
Default                                  : Yes
Forced                                   : No

Subtitles : English,German,Turkish


Screenshots : 
 
http://anonimag.es/i/QN2LaaK6e2399.jpg
        
        
udp://tracker.leechers-paradise.org:6969
udp://zer0day.ch:1337
udp://open.demonii.com:1337
udp://tracker.coppersurfer.tk:6969
udp://exodus.desync.com:6969

4000 symbols left
Hash 01d2c1f3091ef56f08f840525264f51fac34ee9d