Thor Ragnarok 2017 NEW FULL HDCAM ENG X264-DADDY

Size 2.03 GB   131 seeders     Added 2 weeks ago

screens:
  
http://imgmak.com/kiK
  
http://imgmak.com/kiT
  
http://imgmak.com/kia
  
http://imgmak.com/kip
  
http://imgmak.com/kiR
  
http://imgmak.com/kib


Source: Multiple Sources
Sample: Yes 2 included
Language: English

Format                      : Matroska
File size                   : 1.99 GiB
Duration                    : 2 h 1 min
Overall bit rate mode       : Variable
Overall bit rate            : 2 351 kb/s
Movie name                  : WwW.SeeHD.WS

Video
ID                          : 1
Format                      : AVC
Format/Info                 : Advanced Video Codec
Format settings, CABAC      : Yes
Format settings, ReFrames   : 6 frames
Codec ID                    : V_MPEG4/ISO/AVC
Duration                    : 2 h 1 min
Bit rate mode               : Variable
Bit rate                    : 2 100 kb/s
Maximum bit rate            : 62.5 Mb/s
Width                       : 720 pixels
Height                      : 352 pixels
Display aspect ratio        : 2.045
Frame rate mode             : Constant
Frame rate                  : 30.000 FPS
Color space                 : YUV
Chroma subsampling          : 4:2:0
Bit depth                   : 8 bits
Scan type                   : Progressive
Bits/(Pixel*Frame)          : 0.276
Stream size                 : 1.77 GiB (89%)

Audio
ID                          : 2
Format                      : AAC
Format/Info                 : Advanced Audio Codec
Format profile              : LC
Codec ID                    : A_AAC
Duration                    : 2 h 1 min
Bit rate                    : 254 kb/s
Channel(s)                  : 2 channels
Channel positions           : Front: L R
Sampling rate               : 44.1 kHz
Frame rate                  : 43.066 FPS (1024 spf)
Compression mode            : Lossy
Stream size                 : 220 MiB (11%)
Language                    : English
Default                     : Yes
Forced                      : No
        
        
udp://tracker.leechers-paradise.org:6969
udp://zer0day.ch:1337
udp://open.demonii.com:1337
udp://tracker.coppersurfer.tk:6969
udp://exodus.desync.com:6969

4000 symbols left
Hash fc77d1ed9830c659c0b57e91cf569147ae8fe0ae