Firangi 2017 Hindi Pre-DVDRip x264 AAC { TaRa }.mkv

Size 698.62 MB   63 seeders     Added 2 weeks ago

===================================================================
General
Complete name               : Firangi 2017 Hindi Pre-DVDRip x264 AAC { TaRa }.mkv
Format                      : Matroska
Format version              : Version 4 / Version 2
File size                   : 698 MiB
Duration                    : 2 h 13 min
Overall bit rate            : 732 kb/s
===================================================================
Video
ID                          : 1
Format                      : AVC
Format/Info                 : Advanced Video Codec
Format profile              : [email protected]
Format settings, CABAC      : Yes
Format settings, ReFrames   : 8 frames
Codec ID                    : V_MPEG4/ISO/AVC
Duration                    : 2 h 13 min
Bit rate                    : 650 kb/s
Width                       : 640 pixels
Height                      : 272 pixels
Display aspect ratio        : 2.35:1
Frame rate mode             : Constant
Frame rate                  : 25.000 FPS
Color space                 : YUV
Chroma subsampling          : 4:2:0
Bit depth                   : 8 bits
Scan type                   : Progressive
Bits/(Pixel*Frame)          : 0.149
Stream size                 : 620 MiB (89%)
Title                       :
Language                    : Hindi
Default                     : Yes
Forced                      : No
===================================================================
Audio
ID                          : 2
Format                      : AAC
Format/Info                 : Advanced Audio Codec
Format profile              : LC
Codec ID                    : A_AAC
Duration                    : 2 h 13 min
Bit rate                    : 80.0 kb/s
Channel(s)                  : 2 channels
Channel positions           : Front: L R
Sampling rate               : 44.1 kHz
Frame rate                  : 43.066 FPS (1024 spf)
Compression mode            : Lossy
Delay relative to video     : 10 ms
Stream size                 : 76.3 MiB (11%)
Title                       :
Language                    : Hindi
Default                     : Yes
Forced                      : No
===================================================================
        
        
udp://tracker.leechers-paradise.org:6969
udp://zer0day.ch:1337
udp://open.demonii.com:1337
udp://tracker.coppersurfer.tk:6969
udp://exodus.desync.com:6969

4000 symbols left
Hash 0ed869ac11886471c1c3a466ed75ed5054ffc6db