Ultimate Justice.2016.HDRip.XviD.AC3.Life.Longg

Size 899.15 MB   7 seeders     Added 2 weeks ago

******************************Screenshots:********************
 
http://picserver4u.com/0836.html
 
http://picserver4u.com/0837.html
 
http://picserver4u.com/0838.html
 
http://picserver4u.com/0839.html
 
http://picserver4u.com/0840.html

****************************************************************

General
Complete name                            : Ultimate Justice.2016.HDRip.XviD.AC3.Life.Longg
Format                                   : MPEG-4
Format profile                           : Base Media
Codec ID                                 : isom (isom/iso2/avc1/mp41)
File size                                : 888 MiB
Duration                                 : 1 h 33 min
Overall bit rate                         : 1 331 kb/s
Writing application                      : Lavf57.56.101

Video
ID                                       : 1
Format                                   : AVC
Format/Info                              : Advanced Video Codec
Format profile                           : [email protected]
Format settings                          : CABAC / 4 Ref Frames
Format settings, CABAC                   : Yes
Format settings, RefFrames               : 4 frames
Codec ID                                 : avc1
Codec ID/Info                            : Advanced Video Coding
Duration                                 : 1 h 33 min
Bit rate                                 : 1 200 kb/s
Width                                    : 720 pixels
Height                                   : 304 pixels
Display aspect ratio                     : 2.35:1
Frame rate mode                          : Constant
Frame rate                               : 23.976 (23976/1000) FPS
Color space                              : YUV
Chroma subsampling                       : 4:2:0
Bit depth                                : 8 bits
Scan type                                : Progressive
Bits/(Pixel*Frame)                       : 0.229
Stream size                              : 799 MiB (90%)


Audio
ID                                       : 2
Format                                   : AC-3
Format/Info                              : Audio Coding 3
Codec ID                                 : ac-3
Duration                                 : 1 h 33 min
Bit rate mode                            : Constant
Bit rate                                 : 128 kb/s
Channel(s)                               : 2 channels
Channel positions                        : Front: L R
Sampling rate                            : 48.0 kHz
Frame rate                               : 31.250 FPS (1536 SPF)
Bit depth                                : 16 bits
Compression mode                         : Lossy
Stream size                              : 85.4 MiB (10%)
Title                                    : ac3
Service kind                             : Complete Main
Default                                  : Yes
Alternate group                          : 1
        
        
udp://tracker.leechers-paradise.org:6969
udp://zer0day.ch:1337
udp://open.demonii.com:1337
udp://tracker.coppersurfer.tk:6969
udp://exodus.desync.com:6969

4000 symbols left
Hash e34401dc91a43d93b94093d31ac4ffc26d2571cb